<?xml version="1.0" standalone="no"?>
<!DOCTYPE svg PUBLIC "-//W3C//DTD SVG 1.1//EN" "http://www.w3.org/Graphics/SVG/1.1/DTD/svg11.dtd">
<svg xmlns="http://www.w3.org/2000/svg">
<defs >
<font id="ZillaSlabHighlight" horiz-adv-x="548" ><font-face
    font-family="Zilla Slab Highlight"
    units-per-em="1000"
    panose-1="0 0 0 0 0 0 0 0 0 0"
    ascent="944"
    descent="-256"
    alphabetic="0" />
<glyph unicode=" " glyph-name="uni0020" horiz-adv-x="178" />
<glyph unicode="!" glyph-name="uni0021" horiz-adv-x="261" d="M-10 917H271V-213H-10V917ZM207 650H53L83 232H177L207 650ZM56 0H207V145H56V0Z" />
<glyph unicode="&quot;" glyph-name="uni0022" horiz-adv-x="387" d="M-10 917H398V-213H-10V917ZM158 377L168 650H39L49 377H158ZM338 377L348 650H219L229 377H338Z" />
<glyph unicode="#" glyph-name="uni0023" horiz-adv-x="574" d="M-10 917H584V-213H-10V917ZM513 199H448L472 322H543V420H490L510 521H400L380 420H251L271 521H161L141 420H61V322H123L99 199H31V101H80L61 0H171L190 101H319L300 0H410L429 101H513V199ZM233
322H362L338 199H209L233 322Z" />
<glyph unicode="$" glyph-name="uni0024" horiz-adv-x="491" d="M-10 917H500V-213H-10V917ZM462 162Q462 224 430 257T355 304T283 323V425Q306 422 327 412L339 343L447 351L434 479Q407 498 369 511T283 528V593H219V527Q155 521 99 487T42 369Q42 313 68 285T135
244T218 224L219 95Q205 96 190 100T160 111L164 170L56 178L37 47Q68 25 115 10T219 -7V-65H283V-5Q362 4 412 46T462 162ZM181 384Q181 415 219 424V338Q181 353 181 384ZM323 147Q323 109 283 98V205Q323 186 323 147Z" />
<glyph unicode="%" glyph-name="uni0025" horiz-adv-x="738" d="M-10 917H748V-213H-10V917ZM184 240Q260 240 301 282T342 387Q342 446 303 488T188 531Q112 531 70 489T27 384Q27 323 67 282T184 240ZM501 521L332 285L97 0H231L426 259L635 521H501ZM184 322Q162
322 147 336T131 385Q131 421 147 435T186 449Q208 449 223 435T238 386Q238 350 222 336T184 322ZM553 -10Q630 -10 670 32T711 137Q711 196 673 238T557 281Q480 281 438 239T396 134Q396 73 436 32T553 -10ZM553 72Q531 72 516 86T500 135Q500 171 516 185T555
199Q577 199 592 185T607 136Q607 100 592 86T553 72Z" />
<glyph unicode="&amp;" glyph-name="uni0026" horiz-adv-x="702" d="M-12 917H712V-213H-12V917ZM436 271H485Q471 210 439 170Q356 228 300 315Q394 362 442 403T490 511Q490 582 440 621T308 660Q201 660 157 602T112 473Q112 401 152 315Q104 290 64 255T23
152Q23 66 90 28T229 -10Q274 -10 318 3T403 39Q488 -10 570 -10Q598 -10 627 -4T682 16L655 126Q625 113 591 113Q557 113 520 127Q589 194 623 271H687V385H436V271ZM242 484Q242 501 251 531T305 562Q342 562 350 541T358 505Q358 472 338 441T267 377Q242 433
242 484ZM266 99Q217 99 184 115T151 178Q151 222 186 253Q237 171 315 102Q290 99 266 99Z" />
<glyph unicode="&apos;" glyph-name="uni0027" horiz-adv-x="208" d="M-10 917H218V-213H-10V917ZM158 377L168 650H39L49 377H158Z" />
<glyph unicode="(" glyph-name="uni0028" horiz-adv-x="308" d="M-10 917H318V-213H-10V917ZM184 718Q102 612 63 499T23 270Q23 156 61 42T182 -183H298Q215 -80 174 37T132 270Q132 507 298 718H184Z" />
<glyph unicode=")" glyph-name="uni0029" horiz-adv-x="308" d="M318 917V-213H-10V917H318ZM124 718H10Q176 507 176 270Q176 154 135 37T10 -183H126Q209 -73 247 41T285 270Q285 386 246 499T124 718Z" />
<glyph unicode="*" glyph-name="uni002A" horiz-adv-x="416" d="M-10 917H427V-213H-10V917ZM339 607L244 542L252 650H163L171 543L77 607L30 532L135 479L30 426L78 351L170 413L163 309H252L245 414L338 351L386 426L280 479L386 532L339 607Z" />
<glyph unicode="+" glyph-name="uni002B" horiz-adv-x="401" d="M-10 917H410V-213H-10V917ZM27 237H159V108H247V237H374V325H247V455H159V325H27V237Z" />
<glyph unicode="," glyph-name="uni002C" horiz-adv-x="222" d="M-10 -213V917H232V-213H-10ZM63 149L3 -85H129L189 149H63Z" />
<glyph unicode="-" glyph-name="uni002D" horiz-adv-x="321" d="M-10 -213V917H331V-213H-10ZM41 288V180H280V288H41Z" />
<glyph unicode="." glyph-name="uni002E" horiz-adv-x="228" d="M-10 -213V917H237V-213H-10ZM37 163V0H190V163H37Z" />
<glyph unicode="/" glyph-name="uni002F" horiz-adv-x="376" d="M-10 -213V917H386V-213H-10ZM361 688H234L39 0H166L361 688Z" />
<glyph unicode="0" glyph-name="uni0030" horiz-adv-x="576" d="M-10 917H585V-213H-10V917ZM545 254Q545 374 483 452T288 531Q163 531 97 454T31 252Q31 116 98 53T284 -10Q402 -10 473 54T545 254ZM401 261Q401 166 369 137T287 108Q234 108 205 139T176 261Q176
350 204 381T287 413Q338 413 369 383T401 261Z" />
<glyph unicode="1" glyph-name="uni0031" horiz-adv-x="404" d="M-10 917H414V-213H-10V917ZM387 0V114H287V521H43V407H153V114H43V0H387Z" />
<glyph unicode="2" glyph-name="uni0032" horiz-adv-x="537" d="M-10 917H547V-213H-10V917ZM71 492L50 339L153 328L168 402Q184 410 208 413T250 417Q285 417 311 404T337 358Q337 317 295 279T183 198T35 106L47 0H501L516 163L409 173L402 114H190Q258 150
325 186T436 268T481 379Q481 438 434 484T268 531Q232 531 181 524T71 492Z" />
<glyph unicode="3" glyph-name="uni0033" horiz-adv-x="533" d="M-10 917H544V-213H-10V917ZM71 492L50 339L153 328L168 402Q184 410 209 413T253 417Q337 417 337 346Q337 332 329 310T294 270T207 253V165Q279 163 319 142T359 71Q359 34 335 4T253 -27Q194
-27 170 4T146 71L37 38Q38 -44 92 -92T254 -141Q356 -141 430 -94T504 55Q504 115 472 158T369 215V219Q430 244 455 282T481 370Q481 452 422 491T272 531Q239 531 184 524T71 492Z" />
<glyph unicode="4" glyph-name="uni0034" horiz-adv-x="570" d="M-10 917H580V-213H-10V917ZM451 -130V29H539L549 140H451V521H213L15 140L29 29H317V-130H451ZM317 140H143L279 407H317V140Z" />
<glyph unicode="5" glyph-name="uni0035" horiz-adv-x="522" d="M-10 917H532V-213H-10V917ZM498 71Q498 156 459 201T357 263T224 281Q215 281 206 281T187 280V407H350L368 328L482 338L463 521H63V208L106 167Q128 168 152 170T200 172Q260 172 306 153T353
71Q353 34 329 4T247 -27Q188 -27 164 4T140 71L31 38Q32 -44 86 -92T248 -141Q350 -141 424 -94T498 71Z" />
<glyph unicode="6" glyph-name="uni0036" horiz-adv-x="536" d="M-10 917H545V-213H-10V917ZM504 216Q504 290 463 355T321 420Q262 420 227 397T175 342Q175 358 176 365Q180 464 205 505T290 546Q373 546 412 493L489 570Q454 620 402 640T295 660Q196 660 139
611T56 483T31 311Q31 170 87 80T272 -10Q379 -10 441 53T504 216ZM366 211Q366 108 274 108Q225 108 204 135T178 221Q180 260 204 285T277 311Q326 311 346 284T366 211Z" />
<glyph unicode="7" glyph-name="uni0037" horiz-adv-x="495" d="M-10 917H505V-213H-10V917ZM490 458L474 521H24V299H141V408H345L128 -130H260L490 458Z" />
<glyph unicode="8" glyph-name="uni0038" horiz-adv-x="539" d="M-10 917H548V-213H-10V917ZM511 170Q511 244 470 287T375 358Q421 380 454 411T488 498Q488 572 428 616T270 660Q168 660 106 612T44 484Q44 422 78 384T161 319Q108 296 69 261T30 159Q30 76
95 33T269 -10Q371 -10 441 38T511 170ZM354 475Q354 423 310 389Q260 412 224 435T188 493Q188 552 270 552Q302 552 328 537T354 475ZM367 168Q367 139 343 119T271 98Q218 98 192 124T165 191Q165 225 180 248T222 288Q278 262 322 236T367 168Z" />
<glyph unicode="9" glyph-name="uni0039" horiz-adv-x="535" d="M-10 917H545V-213H-10V917ZM31 305Q31 232 72 167T214 101Q273 101 308 124T360 179Q360 163 359 156Q354 57 329 16T245 -25Q162 -25 123 28L46 -49Q80 -99 132 -119T240 -139Q338 -139 396 -90T479
38T504 210Q504 351 448 441T263 531Q156 531 94 468T31 305ZM169 310Q169 413 261 413Q310 413 331 386T357 300Q355 261 331 236T258 210Q208 210 189 237T169 310Z" />
<glyph unicode=":" glyph-name="uni003A" horiz-adv-x="248" d="M-10 917H257V-213H-10V917ZM59 289H193V451H59V289ZM59 0H193V162H59V0Z" />
<glyph unicode=";" glyph-name="uni003B" horiz-adv-x="247" d="M-10 917H257V-213H-10V917ZM61 289H195V451H61V289ZM192 149H66L6 -85H132L192 149Z" />
<glyph unicode="&lt;" glyph-name="uni003C" horiz-adv-x="398" d="M-10 917H408V-213H-10V917ZM344 14V136L156 282L343 427V549L25 301V257L344 14Z" />
<glyph unicode="=" glyph-name="uni003D" horiz-adv-x="545" d="M-10 917H555V-213H-10V917ZM44 347H501V435H44V347ZM44 125H501V213H44V125Z" />
<glyph unicode="&gt;" glyph-name="uni003E" horiz-adv-x="395" d="M-10 917H405V-213H-10V917ZM371 257V301L53 549V427L240 282L52 136V14L371 257Z" />
<glyph unicode="?" glyph-name="uni003F" horiz-adv-x="480" d="M-10 917H490V-213H-10V917ZM136 456L151 527Q167 535 191 538T233 542Q309 542 309 491Q309 457 281 440T216 408T151 369T123 296Q123 182 304 205V284Q263 284 263 312Q263 335 292 350T359 384T427
432T456 513Q456 581 398 620T251 659Q215 659 164 652T54 620L33 467L136 456ZM151 0H302V145H151V0Z" />
<glyph unicode="@" glyph-name="uni0040" horiz-adv-x="894" d="M-12 917H904V-213H-12V917ZM292 419L270 297L368 286L392 355Q408 363 424 365T452 368Q489 368 504 348T520 267V252Q503 254 484 255T449 256Q396 256 346 245T264 205T231 119Q231 48 278 19T375
-10Q430 -10 465 18T521 81Q528 39 567 15T661 -10Q736 -10 780 34T843 144T862 275Q862 410 802 493T648 615T456 654Q327 654 231 596T82 438T29 214Q29 82 86 -11T240 -153T451 -202Q528 -202 594 -182T709 -130L667 -52Q622 -84 569 -95T469 -106Q386 -106
310 -74T185 32T136 228Q136 388 224 473T461 558Q585 558 670 487T755 228Q755 173 743 125T689 76Q675 76 662 84T649 111V307Q649 376 599 418T451 460Q414 460 374 452T292 419ZM520 190V187Q517 132 487 107T422 82Q393 82 381 97T369 134Q369 171 394 183T455
196Q471 196 487 194T520 190Z" />
<glyph unicode="A" glyph-name="uni0041" horiz-adv-x="654" d="M-10 917H664V114H602L368 650H145V536H235L49 114H-10V917ZM329 459L397 276H250L323 459H329ZM664 -213H-10V0H246V114H185L212 180H433L457 114H405V0H664V-213Z" />
<glyph unicode="B" glyph-name="uni0042" horiz-adv-x="622" d="M-10 -213V917H632V-213H-10ZM598 193Q598 258 563 303T457 358V362Q513 371 544 409T575 498Q575 567 521 608T377 650H39V536H109V114H39V0H381Q493 0 545 57T598 193ZM431 463Q431 430 410 407T332
384H243V536H342Q378 536 404 522T431 463ZM454 198Q454 114 346 114H243V280H355Q454 280 454 198Z" />
<glyph unicode="C" glyph-name="uni0043" horiz-adv-x="643" d="M-10 -213V917H653V-213H-10ZM594 69L607 222L498 232L484 135Q439 108 360 108Q276 108 222 159T168 323Q168 430 217 486T351 542Q384 542 421 533T484 507L498 421L607 431L591 582Q560 611 500
635T357 660Q234 660 161 605T56 470T24 314Q24 169 118 80T351 -10Q421 -10 491 12T594 69Z" />
<glyph unicode="D" glyph-name="uni0044" horiz-adv-x="698" d="M-10 -213V917H708V-213H-10ZM673 328Q673 472 589 561T337 650H39V536H109V114H39V0H345Q499 0 586 90T673 328ZM529 326Q529 214 479 164T334 114H243V536H334Q529 536 529 326Z" />
<glyph unicode="E" glyph-name="uni0045" horiz-adv-x="594" d="M-10 -213V917H604V-213H-10ZM39 0H541L561 190L447 200L427 114H243V270H517V383H243V536H421L441 450L555 460L535 650H39V536H109V114H39V0Z" />
<glyph unicode="F" glyph-name="uni0046" horiz-adv-x="567" d="M-10 -213V917H577V-213H-10ZM433 440L547 450L527 650H39V536H109V114H39V0H349V114H243V241H516V354H243V536H413L433 440Z" />
<glyph unicode="G" glyph-name="uni0047" horiz-adv-x="682" d="M-10 -213V917H692V-213H-10ZM626 246H658V359H364V246H491V242Q491 178 452 143T347 108Q268 108 219 161T169 322Q169 434 221 488T354 542Q387 542 426 533T492 507L510 431L618 441L600 582Q568
614 504 637T360 660Q195 660 110 560T25 320Q25 180 105 85T323 -10Q386 -10 432 11T509 68L522 0H626V246Z" />
<glyph unicode="H" glyph-name="uni0048" horiz-adv-x="762" d="M-10 -213V917H772V-213H-10ZM448 0H722V114H652V536H722V650H448V536H518V386H243V536H313V650H39V536H109V114H39V0H313V114H243V273H518V114H448V0Z" />
<glyph unicode="I" glyph-name="uni0049" horiz-adv-x="353" d="M-10 -213V917H363V-213H-10ZM39 0H313V114H243V536H313V650H39V536H109V114H39V0Z" />
<glyph unicode="J" glyph-name="uni004A" horiz-adv-x="485" d="M-10 -213V917H495V-213H-10ZM397 536H457V650H149V536H263V184Q263 154 246 134T187 114Q163 114 140 127T99 184L5 113Q26 64 71 27T200 -10Q288 -10 342 38T397 185V536Z" />
<glyph unicode="K" glyph-name="uni004B" horiz-adv-x="674" d="M-10 -213V917H684V-213H-10ZM382 0H665V114H598L426 341L581 536H654V650H384V536H440L325 383H243V536H301V650H39V536H109V114H39V0H298V114H243V274H323L442 114H382V0Z" />
<glyph unicode="L" glyph-name="uni004C" horiz-adv-x="559" d="M-10 -213V917H569V-213H-10ZM39 0H527L547 230L433 240L413 114H243V536H334V650H39V536H109V114H39V0Z" />
<glyph unicode="M" glyph-name="uni004D" horiz-adv-x="900" d="M-10 -213V917H910V-213H-10ZM789 536H869V650H675L458 247H454L223 650H31V536H111V114H41V0H298V114H236V374H240L424 53H480L651 362H655V114H598V0H859V114H789V536Z" />
<glyph unicode="N" glyph-name="uni004E" horiz-adv-x="760" d="M-10 -213V917H770V-213H-10ZM663 536H733V650H444V536H538V264H534L206 650H29V536H110V114H40V0H325V114H235V412H239L588 -1L663 0V536Z" />
<glyph unicode="O" glyph-name="uni004F" horiz-adv-x="712" d="M-10 -213V917H722V-213H-10ZM688 326Q688 463 601 561T357 660Q204 660 114 563T24 324Q24 188 109 89T353 -10Q511 -10 599 89T688 326ZM543 322Q543 227 499 168T360 108Q257 108 213 173T169
327Q169 419 214 480T356 542Q447 542 495 484T543 322Z" />
<glyph unicode="P" glyph-name="uni0050" horiz-adv-x="599" d="M-10 -213V917H609V-213H-10ZM584 438Q584 536 521 593T337 650H39V536H109V114H39V0H343V114H243V218H343Q439 218 511 272T584 438ZM440 436Q440 389 414 360T318 331H243V536H320Q387 536 413
510T440 436Z" />
<glyph unicode="Q" glyph-name="uni0051" horiz-adv-x="718" d="M-10 -213V917H728V-213H-10ZM688 326Q688 463 601 561T357 660Q204 660 114 563T24 324Q24 188 109 89T353 -10Q445 -10 518 28L593 -49L677 34L611 102Q688 194 688 326ZM543 322Q543 248 518
198L416 303L332 220L430 119Q399 108 360 108Q257 108 213 173T169 327Q169 419 214 480T356 542Q447 542 495 484T543 322Z" />
<glyph unicode="R" glyph-name="uni0052" horiz-adv-x="638" d="M-10 -213V917H648V-213H-10ZM460 0H626V114H548L460 276Q516 298 550 342T584 453Q584 551 519 600T333 650H39V536H109V114H39V0H313V114H243V248H331L460 0ZM440 450Q440 404 412 379T307 354H243V536H309Q382
536 411 518T440 450Z" />
<glyph unicode="S" glyph-name="uni0053" horiz-adv-x="557" d="M-10 -213V917H567V-213H-10ZM526 197Q526 280 486 319T392 373T298 396Q254 406 220 422T186 479Q186 514 212 528T279 542Q303 542 328 536T379 513L388 437L495 447L489 588Q458 621 400 640T278
660Q190 660 116 616T42 462Q42 392 74 357T153 306T248 282Q302 272 342 254T382 181Q382 132 348 119T261 105Q244 105 220 108T162 130L163 209L56 219L36 58Q74 24 139 7T271 -10Q390 -10 458 43T526 197Z" />
<glyph unicode="T" glyph-name="uni0054" horiz-adv-x="652" d="M-10 -213V917H662V-213H-10ZM515 420L629 430L609 650H41L21 430L135 420L155 536H258V114H158V0H498V114H392V536H495L515 420Z" />
<glyph unicode="U" glyph-name="uni0055" horiz-adv-x="719" d="M-10 -213V917H729V-213H-10ZM634 536H692V650H433V536H509V269Q509 196 475 152T363 108Q285 108 253 151T220 262V536H296V650H28V536H86V258Q86 153 147 72T356 -10Q460 -10 521 31T608 136T634
269V536Z" />
<glyph unicode="V" glyph-name="uni0056" horiz-adv-x="654" d="M259 536V650H-10V917H664V650H408V536H469L339 207H333L200 536H259ZM664 -213H-10V536H51L281 0H374L605 536H664V-213Z" />
<glyph unicode="W" glyph-name="uni0057" horiz-adv-x="953" d="M249 536V650H-10V917H963V650H707V536H777L691 216H685L570 536H616V650H357V536H408L292 222H286L189 536H249ZM963 -213H-10V536H46L236 0H333L479 420H484L637 0H732L911 536H963V-213Z" />
<glyph unicode="X" glyph-name="uni0058" horiz-adv-x="667" d="M-10 -213V917H677V-213H-10ZM393 0H658V114H600L409 335L583 536H643V650H387V536H434L340 419L238 536H282V650H21V536H81L258 333L76 114H6V0H278V114H224L327 246L439 114H393V0Z" />
<glyph unicode="Y" glyph-name="uni0059" horiz-adv-x="612" d="M259 536V650H-10V917H622V650H366V536H428L320 372H314L205 536H259ZM622 -213H-10V536H48L243 255V114H143V0H483V114H377V254L566 536H622V-213Z" />
<glyph unicode="Z" glyph-name="uni005A" horiz-adv-x="589" d="M-10 -213V917H599V-213H-10ZM24 0H550L570 224L456 234L436 114H214V116L549 589L547 650H61L41 445L155 435L175 536H351V535L21 69L24 0Z" />
<glyph unicode="[" glyph-name="uni005B" horiz-adv-x="376" d="M-10 -213V917H386V-213H290V-126H176V698H290V785H67V-213H-10Z" />
<glyph unicode="\" glyph-name="uni005C" horiz-adv-x="376" d="M386 -213H-10V917H386V-213ZM15 688L210 0H337L142 688H15Z" />
<glyph unicode="]" glyph-name="uni005D" horiz-adv-x="376" d="M386 -213H309V785H86V698H200V-126H86V-213H-10V917H386V-213Z" />
<glyph unicode="^" glyph-name="uni005E" horiz-adv-x="469" d="M-10 917H479V-213H-10V917ZM189 650L28 367H147L230 525L323 367H441L270 650H189Z" />
<glyph unicode="_" glyph-name="uni005F" horiz-adv-x="502" d="M-12 917H510V-213H-12V917ZM35 -153H467V-68H35V-153Z" />
<glyph unicode="`" glyph-name="uni0060" horiz-adv-x="440" d="M340 508L145 599L212 700L374 557L340 508Z" />
<glyph unicode="a" glyph-name="uni0061" horiz-adv-x="506" d="M-10 -213V917H517V-213H-10ZM68 419L48 302L151 291L168 355Q184 363 200 365T237 368Q292 368 301 335T311 267V252Q280 256 237 256Q160 256 94 229T27 119Q27 48 72 19T166 -10Q221 -10 256
18T311 80V79Q321 -10 410 -10Q452 -10 491 11L490 79Q480 76 471 76Q440 76 440 111V307Q440 384 387 422T261 460Q206 460 167 452T68 419ZM311 184Q306 131 277 107T213 82Q184 82 172 97T160 134Q160 171 186 183T246 196Q262 196 278 194T311 190V184Z" />
<glyph unicode="b" glyph-name="uni0062" horiz-adv-x="544" d="M-10 -213V590H50V139Q50 105 45 70T33 0H162Q165 17 167 34T172 68Q214 -10 317 -10Q419 -10 471 63T524 236Q524 342 470 401T331 460Q270 460 234 432T179 365V688H-10V917H554V-213H-10ZM390
225Q390 156 360 124T285 91Q234 91 207 128T179 221V232Q179 282 207 320T288 358Q334 358 362 324T390 225Z" />
<glyph unicode="c" glyph-name="uni0063" horiz-adv-x="471" d="M-10 -213V917H480V-213H-10ZM455 168L347 188Q334 92 258 92Q155 92 155 224Q155 295 184 326T254 358Q283 358 322 345L337 271L440 282L420 419Q379 441 337 450T257 460Q159 460 90 399T21 218Q21
104 84 47T246 -10Q355 -10 401 48T455 168Z" />
<glyph unicode="d" glyph-name="uni0064" horiz-adv-x="570" d="M-10 -213V917H581V-213H-10ZM367 0H556V97H496V688H277V590H367V382Q348 416 313 438T223 460Q122 460 72 389T22 217Q22 112 73 51T213 -10Q274 -10 311 17T367 84V0ZM367 239V228Q367 178 338
135T257 92Q216 92 186 126T156 225Q156 294 188 326T264 358Q308 358 337 327T367 239Z" />
<glyph unicode="e" glyph-name="uni0065" horiz-adv-x="480" d="M-10 -213V917H492V-213H-10ZM463 142L355 162Q351 142 333 117T262 92Q167 92 156 199H452Q459 231 459 264Q458 352 400 406T247 460Q140 460 81 391T21 217Q21 104 86 47T253 -10Q350 -10 404
36T463 142ZM326 274H157Q163 316 185 342T247 368Q293 368 311 338T326 274Z" />
<glyph unicode="f" glyph-name="uni0066" horiz-adv-x="343" d="M-10 -213V917H353V684Q312 698 269 698Q180 698 134 644T88 520V451H33V359H88V97H28V0H292V97H217V359H328V451H217V531Q217 563 235 576T277 589Q296 589 316 583T353 568V-213H-10Z" />
<glyph unicode="g" glyph-name="uni0067" horiz-adv-x="568" d="M-10 -213V917H578V-213H258Q379 -209 437 -141T495 32V353H555V451H366V381Q347 416 312 438T224 460Q129 460 75 389T21 217Q21 110 80 55T218 0Q278 0 313 24T366 82V32Q366 -36 333 -71T247
-106Q163 -106 118 -22L19 -78Q46 -152 105 -181T232 -213H-10ZM366 239V228Q366 178 337 143T255 107Q214 107 187 133T160 225Q160 294 190 323T263 353Q307 353 336 324T366 239Z" />
<glyph unicode="h" glyph-name="uni0068" horiz-adv-x="581" d="M-10 -213V917H590V-213H-10ZM319 0H568V97H508V304Q508 384 461 422T350 460Q250 460 205 382V688H16V590H76V97H16V0H265V97H205V264Q207 308 231 335T300 362Q338 362 358 337T379 254V97H319V0Z" />
<glyph unicode="i" glyph-name="uni0069" horiz-adv-x="299" d="M-10 -213V917H309V-213H-10ZM87 665V531H216V665H87ZM32 0H281V97H221V451H27V353H92V97H32V0Z" />
<glyph unicode="j" glyph-name="uni006A" horiz-adv-x="265" d="M-10 917H275V-213H37Q138 -210 174 -154T211 16V451H12V353H82V16Q82 -56 71 -85T39 -120T-10 -126V917ZM82 531H211V665H82V531Z" />
<glyph unicode="k" glyph-name="uni006B" horiz-adv-x="553" d="M-10 -213V917H563V-213H-10ZM308 0H539V97H500L372 243L469 353H518V451H292V353H346L280 277H205V688H11V590H76V97H16V0H246V97H205V186H272L350 97H308V0Z" />
<glyph unicode="l" glyph-name="uni006C" horiz-adv-x="282" d="M-10 -213V917H294V-213H-10ZM18 0H267V97H207V688H13V590H78V97H18V0Z" />
<glyph unicode="m" glyph-name="uni006D" horiz-adv-x="876" d="M-10 -213V917H887V-213H-10ZM675 0H864V97H804V304Q804 384 757 422T649 460Q542 460 502 363Q486 412 445 436T355 460Q261 460 218 383V451H30V353H89V97H29V0H304V97H218V255Q218 302 238 332T305
362Q343 362 362 337T382 254V0H571V97H511V255Q511 302 531 332T598 362Q636 362 655 337T675 254V0Z" />
<glyph unicode="n" glyph-name="uni006E" horiz-adv-x="593" d="M-10 -213V917H603V-213H-10ZM332 0H581V97H521V304Q521 384 474 422T363 460Q263 460 218 382V451H24V353H89V97H29V0H278V97H218V259Q219 305 244 333T315 362Q353 362 372 337T392 254V97H332V0Z" />
<glyph unicode="o" glyph-name="uni006F" horiz-adv-x="523" d="M-10 -213V917H533V-213H-10ZM262 461Q140 461 80 390T20 220Q20 111 85 51T255 -10Q363 -10 433 54T503 225Q503 320 444 390T262 461ZM259 89Q206 89 180 129T153 227Q153 291 181 326T260 362Q306
362 338 330T370 229Q370 164 340 127T259 89Z" />
<glyph unicode="p" glyph-name="uni0070" horiz-adv-x="571" d="M75 -113H15V-213H-10V917H581V-213H284V-113H204V57Q247 -10 342 -10Q444 -10 496 63T549 236Q549 342 496 401T356 460Q294 460 258 432T204 365V451H10V354H75V-113ZM415 223Q415 156 386 124T310
92Q262 92 233 124T204 211L205 227Q207 284 233 321T310 358Q356 358 385 324T415 223Z" />
<glyph unicode="q" glyph-name="uni0071" horiz-adv-x="545" d="M-10 917H555V-115H495V291Q495 332 500 371T513 451H388Q384 432 381 414T375 377Q356 414 320 437T228 460Q126 460 74 387T21 214Q21 108 74 49T214 -10Q275 -10 311 18T366 84V-115H286V-213H-10V917ZM366
228Q366 178 337 138T256 97Q215 97 188 128T160 225Q160 294 190 323T263 353Q307 353 336 324T366 239V228Z" />
<glyph unicode="r" glyph-name="uni0072" horiz-adv-x="441" d="M-10 -213V917H450V-213H-10ZM314 457Q268 457 244 431T208 365V451H24V353H89V97H29V0H298V97H218V285Q218 318 234 335T273 352Q288 352 308 340L325 263L423 274L403 432Q380 446 357 451T314 457Z" />
<glyph unicode="s" glyph-name="uni0073" horiz-adv-x="455" d="M-12 -213V917H467V-213H-12ZM433 138Q433 203 394 230T302 267T210 285T170 324Q170 346 187 356T230 367Q268 367 301 356L309 293L409 304L398 419Q319 460 229 460Q160 460 96 432T31 320Q31
253 72 225T167 188T262 170T303 132Q303 108 276 96T212 84Q202 84 182 85T144 93V149L44 160L26 34Q71 11 120 1T219 -10Q314 -10 373 26T433 138Z" />
<glyph unicode="t" glyph-name="uni0074" horiz-adv-x="398" d="M-10 -213V917H408V-213H-10ZM398 140L304 169Q298 119 280 109T249 98Q199 98 199 157V359H361V451H199V588H70V451H6V359H70V135Q70 65 114 28T234 -10Q379 -10 398 140Z" />
<glyph unicode="u" glyph-name="uni0075" horiz-adv-x="585" d="M-10 -213V917H596V-213H-10ZM377 0H571V97H506V451H304V354H377V196Q377 149 352 119T280 89Q242 89 223 113T203 197V451H14V354H74V147Q74 67 121 29T232 -9Q332 -9 377 69V0Z" />
<glyph unicode="v" glyph-name="uni0076" horiz-adv-x="527" d="M-10 -213V917H537V-213H-10ZM474 354H520V451H314V354H350L283 165H277L189 354H232V451H2V354H50L220 0H313L474 354Z" />
<glyph unicode="w" glyph-name="uni0077" horiz-adv-x="760" d="M-10 -213V917H770V-213H-10ZM711 354H752V451H536V354H595L558 182H552L429 451H352L246 178H240L185 354H247V451H7V354H48L173 0H264L370 270H376L493 0H589L711 354Z" />
<glyph unicode="x" glyph-name="uni0078" horiz-adv-x="537" d="M-10 -213V917H547V-213H-10ZM296 0H523V97H479L342 236L465 354H510V451H314V354H344L279 287L218 354H249V451H21V354H66L202 222L78 97H16V0H227V97H198L263 168L329 97H296V0Z" />
<glyph unicode="y" glyph-name="uni0079" horiz-adv-x="530" d="M-10 -213V917H540V-213H350V-113H291L334 0L479 354H523V451H317V354H356L288 146H282L190 354H235V451H5V354H51L209 -7L173 -113H101V-213H-10Z" />
<glyph unicode="z" glyph-name="uni007A" horiz-adv-x="477" d="M-10 -213V917H488V-213H-10ZM36 0H430L458 158L356 168L335 97H190L439 383L429 451H33L17 293L110 285L130 354H265L23 68L36 0Z" />
<glyph unicode="{" glyph-name="uni007B" horiz-adv-x="376" d="M-10 -213V917H386V-213H281V-126H217Q154 -126 154 -62Q154 -18 175 26T218 110T240 182Q240 211 213 239T119 276Q186 284 213 312T240 369Q240 401 219 446T176 541T154 634Q154 698 217 698H281V785H217Q123
785 85 742T47 639Q47 585 68 532T111 433T132 361Q132 325 94 315T34 305H15V248H34Q57 248 94 238T132 191Q132 164 111 124T69 36T47 -66Q47 -118 81 -164T207 -213H-10Z" />
<glyph unicode="|" glyph-name="uni007C" horiz-adv-x="244" d="M-10 917H254V-213H-10V917ZM67 730V-80H177V730H67Z" />
<glyph unicode="}" glyph-name="uni007D" horiz-adv-x="376" d="M386 -213H168Q260 -210 294 -164T329 -66Q329 -13 308 35T265 124T244 191Q244 228 281 238T342 248H361V305H342Q320 305 282 315T244 361Q244 388 265 433T307 531T329 639Q329 698 291 741T159
785H95V698H159Q222 698 222 634Q222 590 201 541T158 447T136 369Q136 340 163 312T257 276Q190 268 163 240T136 182Q136 150 157 110T200 26T222 -62Q222 -126 159 -126H95V-213H-10V917H386V-213Z" />
<glyph unicode="~" glyph-name="uni007E" horiz-adv-x="569" d="M-10 -213V917H579V-213H-10ZM379 176Q438 176 480 214T550 310L470 363Q445 321 425 308T376 294Q334 294 303 310T243 343T178 360Q82 360 19 228L90 180Q116 220 136 231T175 242Q210 242 240
226T304 193T379 176Z" />
<glyph unicode="&#xa0;" glyph-name="uni00A0" horiz-adv-x="178" />
<glyph unicode="&#xa1;" glyph-name="uni00A1" horiz-adv-x="247" d="M-10 917H257V-213H-10V917ZM47 309H198V454H47V309ZM201 -196L171 222H77L47 -196H201Z" />
<glyph unicode="&#xa2;" glyph-name="uni00A2" horiz-adv-x="494" d="M-10 917H504V-213H-10V917ZM466 168L358 188Q348 112 297 100V349Q314 346 333 340L348 271L451 282L431 419Q397 436 363 445T297 458V529H228V457Q144 446 88 386T32 218Q32 112 87 56T228
-8V-84H297V-7Q383 5 421 58T466 168ZM171 224Q171 278 186 307T228 346V103Q171 126 171 224Z" />
<glyph unicode="&#xa3;" glyph-name="uni00A3" horiz-adv-x="496" d="M-10 917H506V-213H-10V917ZM466 83L411 143Q388 120 361 109T288 98H165Q203 121 211 150T221 212H362V287H221V335Q221 387 237 407T286 428Q293 428 304 427T329 418L342 353L441 361L428
478Q400 506 357 517T280 528Q200 528 146 480T92 334V287H34V212H92Q92 172 84 144T42 96V0H314Q378 0 418 30T466 83Z" />
<glyph unicode="&#xa4;" glyph-name="uni00A4" horiz-adv-x="447" d="M-10 917H457V-213H-10V917ZM71 321Q71 278 93 242L10 159L58 112L140 194Q178 170 222 170Q266 170 303 194L386 112L434 159L351 242Q373 278 373 321Q373 360 354 395L434 475L386 522L308
445Q268 472 222 472Q174 472 136 445L58 522L10 475L90 395Q71 363 71 321ZM181 321Q181 342 193 357T222 372Q239 372 251 357T263 321Q263 300 251 285T222 270Q205 270 193 285T181 321Z" />
<glyph unicode="&#xa5;" glyph-name="uni00A5" horiz-adv-x="594" d="M-10 917H604V-213H-10V917ZM565 521H342V423H390L310 306H305L224 423H264V521H29V423H74L176 286H107V219H226L236 206V190H107V123H236V98H155V0H452V98H365V123H495V190H365V204L375 219H495V286H423L522
423H565V521Z" />
<glyph unicode="&#xa6;" glyph-name="uni00A6" horiz-adv-x="240" d="M-10 917H250V-213H-10V917ZM65 730V426H175V730H65ZM65 224V-80H175V224H65Z" />
<glyph unicode="&#xa7;" glyph-name="uni00A7" horiz-adv-x="631" d="M-10 917H641V-213H-10V917ZM532 151Q532 168 529 182Q560 201 582 227T605 298Q605 365 555 393T438 430T325 446Q281 453 250 470T219 519Q219 549 245 560T304 571Q336 571 366 564T409
549L419 479L519 490L506 619Q455 642 403 651T307 660Q204 660 148 620T92 509Q92 468 111 438Q80 423 56 398T32 332Q32 280 71 254T167 217T278 201Q327 196 366 188T405 143Q405 116 382 98T314 80Q294 80 252 84T191 94L196 159L96 170L77 34Q131 10 205 0T321
-10Q418 -10 475 35T532 151ZM488 282Q488 270 483 264T474 253Q442 271 402 278T325 291Q242 301 196 308T149 350Q149 374 172 387Q198 374 225 367T278 357Q315 352 364 347T451 328T488 282Z" />
<glyph unicode="&#xa8;" glyph-name="uni00A8" horiz-adv-x="412" d="M57 665H186V531H57V665ZM242 665H371V531H242V665Z" />
<glyph unicode="&#xa9;" glyph-name="uni00A9" horiz-adv-x="596" d="M-10 917H606V-213H-10V917ZM566 261Q566 372 489 450T299 529Q186 529 108 451T30 260Q30 148 108 71T298 -7Q409 -7 487 70T566 261ZM496 261Q496 178 441 118T298 58Q206 58 153 117T100
260Q100 342 152 402T299 463Q393 463 444 403T496 261ZM409 156L415 229L363 234L356 188Q335 174 299 174Q268 174 247 194T225 263Q225 354 299 354Q336 354 356 339L363 298L415 303L407 376Q392 390 364 399T295 409Q228 409 190 367T151 260Q151 184 193
151T292 118Q326 118 359 129T409 156Z" />
<glyph unicode="&#xaa;" glyph-name="uni00AA" horiz-adv-x="375" d="M-10 917H386V-213H-10V917ZM174 643Q212 643 216 621T221 576V570Q210 571 198 571T173 572Q119 572 73 555T27 483Q27 437 59 418T125 398Q162 398 185 416T222 457Q229 398 291 398Q321
398 351 413L350 460Q342 458 338 458Q321 458 321 480V605Q321 705 185 705Q150 705 119 697T57 675L43 597L120 589L133 634Q154 643 174 643ZM221 523Q215 463 166 463Q134 463 134 494Q134 516 147 523T180 531Q199 531 221 526V523Z" />
<glyph unicode="&#xab;" glyph-name="uni00AB" horiz-adv-x="471" d="M-10 917H481V-213H-10V917ZM270 25L153 271L270 511H163L25 271L163 25H270ZM440 25L323 271L440 511H333L195 271L333 25H440Z" />
<glyph unicode="&#xac;" glyph-name="uni00AC" horiz-adv-x="569" d="M-10 917H579V-213H-10V917ZM434 75H522V325H41V237H434V75Z" />
<glyph unicode="&#xae;" glyph-name="uni00AE" horiz-adv-x="561" d="M-10 917H570V-213H-10V917ZM280 159Q384 159 457 232T531 409Q531 513 459 586T281 660Q176 660 103 587T30 409Q30 304 103 232T280 159ZM280 224Q196 224 148 278T100 409Q100 484 148 539T281
595Q366 595 413 540T461 409Q461 334 413 279T280 224ZM167 286H282V334H256V382H284L335 286H408V334H379L344 395Q393 415 393 464Q393 542 289 542H167V494H194V334H167V286ZM277 494Q326 494 326 462Q326 445 316 436T275 427H256V494H277Z" />
<glyph unicode="&#xaf;" glyph-name="uni00AF" horiz-adv-x="335" d="M42 536V634H310V536H42Z" />
<glyph unicode="&#xb0;" glyph-name="uni00B0" horiz-adv-x="363" d="M-10 917H373V-213H-10V917ZM181 342Q258 342 299 388T341 501Q341 567 302 613T183 660Q109 660 66 614T22 500Q22 432 63 387T181 342ZM181 432Q159 432 143 447T127 500Q127 540 143 555T183
570Q205 570 220 555T236 501Q236 462 220 447T181 432Z" />
<glyph unicode="&#xb1;" glyph-name="uni00B1" horiz-adv-x="418" d="M-10 917H428V-213H-10V917ZM36 249H168V120H256V249H383V337H256V467H168V337H36V249ZM36 0H383V88H36V0Z" />
<glyph unicode="&#xb2;" glyph-name="uni00B2" horiz-adv-x="368" d="M-10 917H377V-213H-10V917ZM110 654L120 699Q141 710 166 710Q215 710 215 674Q215 648 185 616T110 550T25 485L34 415H337L347 535L266 545L254 490H149Q176 508 218 539T293 608T326 687Q326
722 294 753T183 785Q146 785 110 778T47 759L33 660L110 654Z" />
<glyph unicode="&#xb3;" glyph-name="uni00B3" horiz-adv-x="351" d="M-9 917H361V-213H-9V917ZM113 658L122 699Q141 709 164 709Q204 709 204 675Q204 646 183 640T137 632V576Q169 574 192 565T216 531Q216 487 162 487Q119 487 103 532L30 507Q40 453 77 431T167
408Q237 408 281 436T325 517Q325 548 308 573T252 608V610Q313 638 313 691Q313 730 280 757T181 784Q150 784 113 778T49 759L36 664L113 658Z" />
<glyph unicode="&#xb4;" glyph-name="uni00B4" horiz-adv-x="440" d="M209 508L175 557L337 700L404 599L209 508Z" />
<glyph unicode="&#xb5;" glyph-name="uni00B5" horiz-adv-x="592" d="M-10 917H602V-213H207V-7Q225 -9 236 -9Q336 -9 381 69V0H575V98H510V451H308V353H381V196Q381 149 356 119T284 89Q246 89 227 113T207 197V451H18V353H78V-213H-10V917Z" />
<glyph unicode="&#xb6;" glyph-name="uni00B6" horiz-adv-x="657" d="M-10 917H666V-213H-10V917ZM236 650Q134 650 80 601T25 484Q25 389 84 350T230 310H276V0H396V541H436V0H556V541H620V650H236Z" />
<glyph unicode="&#xb7;" glyph-name="uni00B7" horiz-adv-x="230" d="M-10 917H241V-213H-10V917ZM38 251H191V414H38V251Z" />
<glyph unicode="&#xb8;" glyph-name="uni00B8" horiz-adv-x="256" d="M301 -121Q301 -171 260 -190T171 -209Q92 -209 55 -179L78 -109Q89 -116 108 -124T156 -132Q192 -132 192 -111Q192 -100 185 -93T153 -86H116V6H204V-41H212Q262 -41 281 -66T301 -121Z" />
<glyph unicode="&#xb9;" glyph-name="uni00B9" horiz-adv-x="282" d="M-10 917H293V-213H-10V917ZM29 704H102V490H29V415H268V490H203V779H29V704Z" />
<glyph unicode="&#xba;" glyph-name="uni00BA" horiz-adv-x="374" d="M-10 917H384V-213H-10V917ZM20 547Q20 476 66 437T182 398Q256 398 305 439T354 552Q354 613 313 659T187 705Q103 705 62 659T20 547ZM128 553Q128 629 186 629Q210 629 228 613T246 554Q246
474 185 474Q156 474 142 496T128 553Z" />
<glyph unicode="&#xbb;" glyph-name="uni00BB" horiz-adv-x="471" d="M-10 917H481V-213H-10V917ZM308 25L446 271L308 511H201L318 271L201 25H308ZM138 25L276 271L138 511H31L148 271L31 25H138Z" />
<glyph unicode="&#xbc;" glyph-name="uni00BC" horiz-adv-x="744" d="M-10 917H754V-213H-10V917ZM504 650L330 337L132 0H220L401 325L592 650H504ZM36 575H109V361H36V286H275V361H210V650H36V575ZM560 0H661V65H712L719 143H661V364H491L385 138L395 65H560V0ZM544
289H560V143H473L544 289Z" />
<glyph unicode="&#xbd;" glyph-name="uni00BD" horiz-adv-x="785" d="M-10 917H795V-213H-10V917ZM34 575H107V361H34V286H273V361H208V650H34V575ZM504 650L330 337L132 0H220L401 325L592 650H504ZM528 239L538 284Q559 295 584 295Q633 295 633 259Q633 234
603 202T528 135T443 70L452 0H755L765 120L684 130L672 75H567Q594 94 636 124T711 193T744 272Q744 306 712 338T601 370Q564 370 528 363T465 344L451 245L528 239Z" />
<glyph unicode="&#xbe;" glyph-name="uni00BE" horiz-adv-x="776" d="M-10 917H786V-213H-10V917ZM116 534L125 575Q144 585 167 585Q207 585 207 551Q207 522 187 516T140 508V452Q172 450 195 441T219 407Q219 363 165 363Q122 363 106 408L33 383Q44 329 81
307T170 284Q240 284 284 312T328 393Q328 424 311 449T255 484V486Q316 514 316 567Q316 606 282 633T184 660Q153 660 116 654T52 635L39 540L116 534ZM531 650L357 337L159 0H247L428 325L619 650H531ZM592 0H693V65H744L751 143H693V364H523L417 138L427 65H592V0ZM576
289H592V143H505L576 289Z" />
<glyph unicode="&#xbf;" glyph-name="uni00BF" horiz-adv-x="474" d="M488 -213H-12V917H488V-213ZM327 454H176V309H327V454ZM342 -2L327 -73Q311 -81 287 -84T245 -88Q169 -88 169 -37Q169 -3 197 14T262 46T327 85T355 158Q355 272 174 249V170Q215 170 215
142Q215 119 186 104T119 70T51 22T22 -59Q22 -127 80 -166T227 -205Q263 -205 314 -198T424 -166L445 -13L342 -2Z" />
<glyph unicode="&#xc0;" glyph-name="uni00C0" horiz-adv-x="654" d="M-10 917H664V114H602L368 650H145V536H235L49 114H-10V917ZM368 688L384 745L182 833L153 716L368 688ZM329 459L397 276H250L323 459H329ZM664 -213H-10V0H246V114H185L212 180H433L457 114H405V0H664V-213Z"
/>
<glyph unicode="&#xc1;" glyph-name="uni00C1" horiz-adv-x="654" d="M-10 917H664V114H602L368 650H145V536H235L49 114H-10V917ZM279 688L494 716L465 833L263 745L279 688ZM329 459L397 276H250L323 459H329ZM664 -213H-10V0H246V114H185L212 180H433L457 114H405V0H664V-213Z"
/>
<glyph unicode="&#xc2;" glyph-name="uni00C2" horiz-adv-x="654" d="M-10 917H664V114H602L368 650H145V536H235L49 114H-10V917ZM440 685L468 737L332 844H287L152 738L181 685L305 745L440 685ZM329 459L397 276H250L323 459H329ZM664 -213H-10V0H246V114H185L212
180H433L457 114H405V0H664V-213Z" />
<glyph unicode="&#xc3;" glyph-name="uni00C3" horiz-adv-x="654" d="M-10 917H664V114H602L368 650H145V536H235L49 114H-10V917ZM467 820L413 831Q406 809 393 801T365 793Q340 793 312 808T250 824Q199 824 181 783T164 714L214 698Q223 731 256 731Q290 731
317 716T382 700Q434 700 450 738T467 820ZM329 459L397 276H250L323 459H329ZM664 -213H-10V0H246V114H185L212 180H433L457 114H405V0H664V-213Z" />
<glyph unicode="&#xc4;" glyph-name="uni00C4" horiz-adv-x="654" d="M-10 917H664V114H602L368 650H145V536H235L49 114H-10V917ZM163 839V705H292V839H163ZM348 839V705H477V839H348ZM329 459L397 276H250L323 459H329ZM664 -213H-10V0H246V114H185L212 180H433L457
114H405V0H664V-213Z" />
<glyph unicode="&#xc5;" glyph-name="uni00C5" horiz-adv-x="654" d="M-10 917H664V114H602L368 650H145V536H235L49 114H-10V917ZM422 783Q422 822 398 847T319 873Q265 873 239 848T213 780Q213 739 238 714T316 689Q371 689 396 715T422 783ZM342 785Q342 749
317 749Q293 749 293 780Q293 813 318 813Q335 813 338 804T342 785ZM329 459L397 276H250L323 459H329ZM664 -213H-10V0H246V114H185L212 180H433L457 114H405V0H664V-213Z" />
<glyph unicode="&#xc6;" glyph-name="uni00C6" horiz-adv-x="920" d="M267 536L54 114H-10V917H930V-213H-10V0H246V114H190L221 180H437V114H367V0H865L885 190L771 200L751 114H571V270H845V383H571V536H745L765 450L879 460L859 650H185V536H267ZM437 536V276H266L389
536H437Z" />
<glyph unicode="&#xc7;" glyph-name="uni00C7" horiz-adv-x="643" d="M-10 -213V917H653V-213H-10ZM471 -121Q471 -92 452 -67T382 -41H374V-9Q439 -5 501 16T594 69L607 222L498 232L484 135Q439 108 360 108Q276 108 222 159T168 323Q168 430 217 486T351 542Q384
542 421 533T484 507L498 421L607 431L591 582Q560 611 500 635T357 660Q234 660 161 605T56 470T24 314Q24 186 97 101T286 -4V-86H323Q347 -86 354 -93T362 -111Q362 -132 326 -132Q298 -132 279 -124T248 -109L225 -179Q262 -209 341 -209Q389 -209 430 -190T471
-121Z" />
<glyph unicode="&#xc8;" glyph-name="uni00C8" horiz-adv-x="594" d="M-10 -213V917H604V-213H-10ZM398 688L414 745L212 833L183 716L398 688ZM39 0H541L561 190L447 200L427 114H243V270H517V383H243V536H421L441 450L555 460L535 650H39V536H109V114H39V0Z" />
<glyph unicode="&#xc9;" glyph-name="uni00C9" horiz-adv-x="594" d="M-10 -213V917H604V-213H-10ZM265 688L480 716L451 833L249 745L265 688ZM39 0H541L561 190L447 200L427 114H243V270H517V383H243V536H421L441 450L555 460L535 650H39V536H109V114H39V0Z" />
<glyph unicode="&#xca;" glyph-name="uni00CA" horiz-adv-x="594" d="M-10 -213V917H604V-213H-10ZM463 685L491 737L355 844H310L175 738L204 685L328 745L463 685ZM39 0H541L561 190L447 200L427 114H243V270H517V383H243V536H421L441 450L555 460L535 650H39V536H109V114H39V0Z"
/>
<glyph unicode="&#xcb;" glyph-name="uni00CB" horiz-adv-x="594" d="M-10 -213V917H604V-213H-10ZM163 839V705H292V839H163ZM348 839V705H477V839H348ZM39 0H541L561 190L447 200L427 114H243V270H517V383H243V536H421L441 450L555 460L535 650H39V536H109V114H39V0Z" />
<glyph unicode="&#xcc;" glyph-name="uni00CC" horiz-adv-x="353" d="M-10 -213V917H363V-213H-10ZM253 688L269 745L67 833L38 716L253 688ZM39 0H313V114H243V536H313V650H39V536H109V114H39V0Z" />
<glyph unicode="&#xcd;" glyph-name="uni00CD" horiz-adv-x="353" d="M-10 -213V917H363V-213H-10ZM90 688L305 716L276 833L74 745L90 688ZM39 0H313V114H243V536H313V650H39V536H109V114H39V0Z" />
<glyph unicode="&#xce;" glyph-name="uni00CE" horiz-adv-x="353" d="M-10 -213V917H363V-213H-10ZM306 685L334 737L198 844H153L18 738L47 685L171 745L306 685ZM39 0H313V114H243V536H313V650H39V536H109V114H39V0Z" />
<glyph unicode="&#xcf;" glyph-name="uni00CF" horiz-adv-x="353" d="M-10 -213V917H363V-213H-10ZM24 839V705H153V839H24ZM209 839V705H338V839H209ZM39 0H313V114H243V536H313V650H39V536H109V114H39V0Z" />
<glyph unicode="&#xd0;" glyph-name="uni00D0" horiz-adv-x="698" d="M-10 -213V917H708V-213H-10ZM673 328Q673 472 589 561T337 650H39V536H109V397H42V287H109V114H39V0H345Q499 0 586 90T673 328ZM529 326Q529 214 479 164T334 114H243V287H364V397H243V536H334Q529
536 529 326Z" />
<glyph unicode="&#xd1;" glyph-name="uni00D1" horiz-adv-x="760" d="M-10 -213V917H770V-213H-10ZM526 820L472 831Q465 809 452 801T424 793Q398 793 370 808T309 824Q258 824 240 783T223 714L273 698Q282 731 315 731Q350 731 377 716T441 700Q493 700 509
738T526 820ZM663 536H733V650H444V536H538V264H534L206 650H29V536H110V114H40V0H325V114H235V412H239L588 -1L663 0V536Z" />
<glyph unicode="&#xd2;" glyph-name="uni00D2" horiz-adv-x="712" d="M-10 -213V917H722V-213H-10ZM432 688L448 745L246 833L217 716L432 688ZM688 326Q688 463 601 561T357 660Q204 660 114 563T24 324Q24 188 109 89T353 -10Q511 -10 599 89T688 326ZM543 322Q543
227 499 168T360 108Q257 108 213 173T169 327Q169 419 214 480T356 542Q447 542 495 484T543 322Z" />
<glyph unicode="&#xd3;" glyph-name="uni00D3" horiz-adv-x="712" d="M-10 -213V917H722V-213H-10ZM307 688L522 716L493 833L291 745L307 688ZM688 326Q688 463 601 561T357 660Q204 660 114 563T24 324Q24 188 109 89T353 -10Q511 -10 599 89T688 326ZM543 322Q543
227 499 168T360 108Q257 108 213 173T169 327Q169 419 214 480T356 542Q447 542 495 484T543 322Z" />
<glyph unicode="&#xd4;" glyph-name="uni00D4" horiz-adv-x="712" d="M-10 -213V917H722V-213H-10ZM490 685L518 737L382 844H337L202 738L231 685L355 745L490 685ZM688 326Q688 463 601 561T357 660Q204 660 114 563T24 324Q24 188 109 89T353 -10Q511 -10 599
89T688 326ZM543 322Q543 227 499 168T360 108Q257 108 213 173T169 327Q169 419 214 480T356 542Q447 542 495 484T543 322Z" />
<glyph unicode="&#xd5;" glyph-name="uni00D5" horiz-adv-x="712" d="M-10 -213V917H722V-213H-10ZM515 820L461 831Q454 809 441 801T413 793Q388 793 360 808T298 824Q247 824 229 783T212 714L262 698Q271 731 304 731Q338 731 365 716T430 700Q482 700 498
738T515 820ZM688 326Q688 463 601 561T357 660Q204 660 114 563T24 324Q24 188 109 89T353 -10Q511 -10 599 89T688 326ZM543 322Q543 227 499 168T360 108Q257 108 213 173T169 327Q169 419 214 480T356 542Q447 542 495 484T543 322Z" />
<glyph unicode="&#xd6;" glyph-name="uni00D6" horiz-adv-x="712" d="M-10 -213V917H722V-213H-10ZM205 839V705H334V839H205ZM390 839V705H519V839H390ZM688 326Q688 463 601 561T357 660Q204 660 114 563T24 324Q24 188 109 89T353 -10Q511 -10 599 89T688 326ZM543
322Q543 227 499 168T360 108Q257 108 213 173T169 327Q169 419 214 480T356 542Q447 542 495 484T543 322Z" />
<glyph unicode="&#xd7;" glyph-name="uni00D7" horiz-adv-x="372" d="M-10 917H382V-213H-10V917ZM94 120L187 213L278 122L340 185L249 276L339 366L277 428L187 338L95 430L33 368L125 276L31 182L94 120Z" />
<glyph unicode="&#xd8;" glyph-name="uni00D8" horiz-adv-x="712" d="M-10 -213V917H722V-213H-10ZM688 326Q688 462 608 554L689 650H563L534 614Q456 660 357 660Q204 660 114 563T24 324Q24 186 104 95L25 0H140L171 37Q248 -10 353 -10Q511 -10 599 89T688
326ZM356 542Q411 542 454 518L194 204Q169 257 169 327Q169 419 214 480T356 542ZM543 322Q543 227 499 168T360 108Q297 108 254 135L518 447Q543 394 543 322Z" />
<glyph unicode="&#xd9;" glyph-name="uni00D9" horiz-adv-x="719" d="M-10 -213V917H729V-213H-10ZM460 688L476 745L274 833L245 716L460 688ZM634 536H692V650H433V536H509V269Q509 196 475 152T363 108Q285 108 253 151T220 262V536H296V650H28V536H86V258Q86
153 147 72T356 -10Q460 -10 521 31T608 136T634 269V536Z" />
<glyph unicode="&#xda;" glyph-name="uni00DA" horiz-adv-x="719" d="M-10 -213V917H729V-213H-10ZM313 688L528 716L499 833L297 745L313 688ZM634 536H692V650H433V536H509V269Q509 196 475 152T363 108Q285 108 253 151T220 262V536H296V650H28V536H86V258Q86
153 147 72T356 -10Q460 -10 521 31T608 136T634 269V536Z" />
<glyph unicode="&#xdb;" glyph-name="uni00DB" horiz-adv-x="719" d="M-10 -213V917H729V-213H-10ZM489 685L517 737L381 844H336L201 738L230 685L354 745L489 685ZM634 536H692V650H433V536H509V269Q509 196 475 152T363 108Q285 108 253 151T220 262V536H296V650H28V536H86V258Q86
153 147 72T356 -10Q460 -10 521 31T608 136T634 269V536Z" />
<glyph unicode="&#xdc;" glyph-name="uni00DC" horiz-adv-x="719" d="M-10 -213V917H729V-213H-10ZM209 839V705H338V839H209ZM394 839V705H523V839H394ZM634 536H692V650H433V536H509V269Q509 196 475 152T363 108Q285 108 253 151T220 262V536H296V650H28V536H86V258Q86
153 147 72T356 -10Q460 -10 521 31T608 136T634 269V536Z" />
<glyph unicode="&#xdd;" glyph-name="uni00DD" horiz-adv-x="612" d="M259 536V650H-10V917H622V650H366V536H428L320 372H314L205 536H259ZM264 688L479 716L450 833L248 745L264 688ZM622 -213H-10V536H48L243 255V114H143V0H483V114H377V254L566 536H622V-213Z" />
<glyph unicode="&#xde;" glyph-name="uni00DE" horiz-adv-x="608" d="M-10 -213V917H618V-213H-10ZM39 0H313V114H243V144H353Q450 144 522 187T594 335Q594 516 347 516H243V536H313V650H39V536H109V114H39V0ZM328 227H243V432H330Q397 432 423 406T450 332Q450
285 424 256T328 227Z" />
<glyph unicode="&#xdf;" glyph-name="uni00DF" horiz-adv-x="685" d="M-10 917H695V-213H-10V917ZM681 137Q681 190 655 216T589 254T511 272T445 289T418 329Q418 359 446 376T513 411T579 457T608 538Q608 600 552 649T361 698Q291 698 229 680T127 617T88 493V451H33V353H88V98H28V0H217V481Q217
541 249 571T359 602Q477 602 477 530Q477 490 447 471T378 438T309 397T279 316Q279 252 320 226T415 190T510 172T551 131Q551 108 524 98T452 88Q442 88 422 89T384 97V149L284 160L266 34Q311 11 360 1T459 -10Q562 -10 621 26T681 137Z" />
<glyph unicode="&#xe0;" glyph-name="uni00E0" horiz-adv-x="507" d="M-10 -213V917H517V-213H-10ZM298 508L332 557L170 700L103 599L298 508ZM68 419L48 302L151 291L168 355Q184 363 200 365T237 368Q292 368 301 335T311 267V252Q280 256 237 256Q160 256
94 229T27 119Q27 48 72 19T166 -10Q221 -10 256 18T311 80V79Q321 -10 410 -10Q452 -10 491 11L490 79Q480 76 471 76Q440 76 440 111V307Q440 384 387 422T261 460Q206 460 167 452T68 419ZM311 184Q306 131 277 107T213 82Q184 82 172 97T160 134Q160 171 186
183T246 196Q262 196 278 194T311 190V184Z" />
<glyph unicode="&#xe1;" glyph-name="uni00E1" horiz-adv-x="507" d="M-10 -213V917H517V-213H-10ZM207 508L402 599L335 700L173 557L207 508ZM68 419L48 302L151 291L168 355Q184 363 200 365T237 368Q292 368 301 335T311 267V252Q280 256 237 256Q160 256
94 229T27 119Q27 48 72 19T166 -10Q221 -10 256 18T311 80V79Q321 -10 410 -10Q452 -10 491 11L490 79Q480 76 471 76Q440 76 440 111V307Q440 384 387 422T261 460Q206 460 167 452T68 419ZM311 184Q306 131 277 107T213 82Q184 82 172 97T160 134Q160 171 186
183T246 196Q262 196 278 194T311 190V184Z" />
<glyph unicode="&#xe2;" glyph-name="uni00E2" horiz-adv-x="507" d="M-10 -213V917H517V-213H-10ZM379 508L413 557L277 684H232L97 558L132 507L244 575L379 508ZM68 419L48 302L151 291L168 355Q184 363 200 365T237 368Q292 368 301 335T311 267V252Q280 256
237 256Q160 256 94 229T27 119Q27 48 72 19T166 -10Q221 -10 256 18T311 80V79Q321 -10 410 -10Q452 -10 491 11L490 79Q480 76 471 76Q440 76 440 111V307Q440 384 387 422T261 460Q206 460 167 452T68 419ZM311 184Q306 131 277 107T213 82Q184 82 172 97T160
134Q160 171 186 183T246 196Q262 196 278 194T311 190V184Z" />
<glyph unicode="&#xe3;" glyph-name="uni00E3" horiz-adv-x="507" d="M-10 -213V917H517V-213H-10ZM407 647L353 658Q340 617 306 617Q280 617 252 636T189 655Q156 655 137 632T110 580T104 531L154 515Q166 558 199 558Q229 558 257 538T324 517Q374 517 390
560T407 647ZM68 419L48 302L151 291L168 355Q184 363 200 365T237 368Q292 368 301 335T311 267V252Q280 256 237 256Q160 256 94 229T27 119Q27 48 72 19T166 -10Q221 -10 256 18T311 80V79Q321 -10 410 -10Q452 -10 491 11L490 79Q480 76 471 76Q440 76 440
111V307Q440 384 387 422T261 460Q206 460 167 452T68 419ZM311 184Q306 131 277 107T213 82Q184 82 172 97T160 134Q160 171 186 183T246 196Q262 196 278 194T311 190V184Z" />
<glyph unicode="&#xe4;" glyph-name="uni00E4" horiz-adv-x="507" d="M-10 -213V917H517V-213H-10ZM98 665V531H227V665H98ZM283 665V531H412V665H283ZM68 419L48 302L151 291L168 355Q184 363 200 365T237 368Q292 368 301 335T311 267V252Q280 256 237 256Q160
256 94 229T27 119Q27 48 72 19T166 -10Q221 -10 256 18T311 80V79Q321 -10 410 -10Q452 -10 491 11L490 79Q480 76 471 76Q440 76 440 111V307Q440 384 387 422T261 460Q206 460 167 452T68 419ZM311 184Q306 131 277 107T213 82Q184 82 172 97T160 134Q160 171
186 183T246 196Q262 196 278 194T311 190V184Z" />
<glyph unicode="&#xe5;" glyph-name="uni00E5" horiz-adv-x="507" d="M-10 -213V917H517V-213H-10ZM360 608Q360 647 336 672T257 698Q203 698 177 673T151 605Q151 564 176 539T254 514Q309 514 334 540T360 608ZM280 610Q280 574 255 574Q231 574 231 605Q231
638 256 638Q273 638 276 629T280 610ZM68 419L48 302L151 291L168 355Q184 363 200 365T237 368Q292 368 301 335T311 267V252Q280 256 237 256Q160 256 94 229T27 119Q27 48 72 19T166 -10Q221 -10 256 18T311 80V79Q321 -10 410 -10Q452 -10 491 11L490 79Q480
76 471 76Q440 76 440 111V307Q440 384 387 422T261 460Q206 460 167 452T68 419ZM311 184Q306 131 277 107T213 82Q184 82 172 97T160 134Q160 171 186 183T246 196Q262 196 278 194T311 190V184Z" />
<glyph unicode="&#xe6;" glyph-name="uni00E6" horiz-adv-x="773" d="M-10 -213V917H783V-213H-10ZM753 142L645 162Q641 142 623 120T553 97Q461 97 451 199H742Q749 230 749 262Q748 350 690 405T537 460Q454 460 395 414Q344 460 261 460Q206 460 167 452T68
419L48 302L151 291L168 355Q184 363 200 365T237 368Q292 368 301 335T311 267V252Q294 254 275 255T237 256Q160 256 91 229T22 119Q22 48 71 19T177 -10Q240 -10 282 17T349 80Q409 -10 543 -10Q640 -10 694 36T753 142ZM615 267H452Q462 363 537 363Q585 363
603 333T615 267ZM160 134Q160 171 186 183T246 196Q262 196 278 194T311 190V187Q311 133 279 108T213 82Q184 82 172 97T160 134Z" />
<glyph unicode="&#xe7;" glyph-name="uni00E7" horiz-adv-x="471" d="M-10 -213V917H480V-213H-10ZM385 -122Q385 -93 366 -68T296 -42H288V-7Q374 5 411 58T455 168L347 188Q334 92 258 92Q155 92 155 224Q155 295 184 326T254 358Q283 358 322 345L337 271L440
282L420 419Q379 441 337 450T257 460Q159 460 90 399T21 218Q21 118 70 62T200 -6V-87H237Q261 -87 268 -94T276 -112Q276 -133 240 -133Q212 -133 193 -126T162 -110L139 -180Q176 -210 255 -210Q303 -210 344 -191T385 -122Z" />
<glyph unicode="&#xe8;" glyph-name="uni00E8" horiz-adv-x="483" d="M-10 -213V917H492V-213H-10ZM289 508L323 557L161 700L94 599L289 508ZM463 142L355 162Q351 142 333 117T262 92Q167 92 156 199H452Q459 231 459 264Q458 352 400 406T247 460Q140 460 81
391T21 217Q21 104 86 47T253 -10Q350 -10 404 36T463 142ZM326 274H157Q163 316 185 342T247 368Q293 368 311 338T326 274Z" />
<glyph unicode="&#xe9;" glyph-name="uni00E9" horiz-adv-x="483" d="M-10 -213V917H492V-213H-10ZM235 508L430 599L363 700L201 557L235 508ZM463 142L355 162Q351 142 333 117T262 92Q167 92 156 199H452Q459 231 459 264Q458 352 400 406T247 460Q140 460
81 391T21 217Q21 104 86 47T253 -10Q350 -10 404 36T463 142ZM326 274H157Q163 316 185 342T247 368Q293 368 311 338T326 274Z" />
<glyph unicode="&#xea;" glyph-name="uni00EA" horiz-adv-x="483" d="M-10 -213V917H492V-213H-10ZM380 508L414 557L278 684H233L98 558L133 507L245 575L380 508ZM463 142L355 162Q351 142 333 117T262 92Q167 92 156 199H452Q459 231 459 264Q458 352 400 406T247
460Q140 460 81 391T21 217Q21 104 86 47T253 -10Q350 -10 404 36T463 142ZM326 274H157Q163 316 185 342T247 368Q293 368 311 338T326 274Z" />
<glyph unicode="&#xeb;" glyph-name="uni00EB" horiz-adv-x="483" d="M-10 -213V917H492V-213H-10ZM102 665V531H231V665H102ZM287 665V531H416V665H287ZM463 142L355 162Q351 142 333 117T262 92Q167 92 156 199H452Q459 231 459 264Q458 352 400 406T247 460Q140
460 81 391T21 217Q21 104 86 47T253 -10Q350 -10 404 36T463 142ZM326 274H157Q163 316 185 342T247 368Q293 368 311 338T326 274Z" />
<glyph unicode="&#xec;" glyph-name="uni00EC" horiz-adv-x="299" d="M-10 -213V917H309V-213H-10ZM200 508L234 557L72 700L5 599L200 508ZM32 0H281V97H221V451H27V353H92V97H32V0Z" />
<glyph unicode="&#xed;" glyph-name="uni00ED" horiz-adv-x="299" d="M-10 -213V917H309V-213H-10ZM92 508L287 599L220 700L58 557L92 508ZM32 0H281V97H221V451H27V353H92V97H32V0Z" />
<glyph unicode="&#xee;" glyph-name="uni00EE" horiz-adv-x="299" d="M-10 -213V917H309V-213H-10ZM267 508L300 555L171 675H128L0 556L33 507L139 572L267 508ZM32 0H281V97H221V451H27V353H92V97H32V0Z" />
<glyph unicode="&#xef;" glyph-name="uni00EF" horiz-adv-x="299" d="M-10 -213V917H309V-213H-10ZM4 655V531H123V655H4ZM175 655V531H294V655H175ZM32 0H281V97H221V451H27V353H92V97H32V0Z" />
<glyph unicode="&#xf0;" glyph-name="uni00F0" horiz-adv-x="528" d="M-10 -213V917H538V-213H-10ZM184 468L227 532Q282 494 313 450Q281 460 248 460Q152 460 86 394T20 218Q20 111 85 51T255 -10Q363 -10 433 53T503 225V251Q503 377 441 469T290 623L327 678L258
718L222 665Q192 681 157 698L102 604L159 574L116 510L184 468ZM260 98Q208 98 184 134T159 227Q159 352 261 352Q304 352 334 328T364 257V220Q364 163 336 131T260 98Z" />
<glyph unicode="&#xf1;" glyph-name="uni00F1" horiz-adv-x="593" d="M-10 -213V917H603V-213H-10ZM451 647L397 658Q384 617 350 617Q324 617 296 636T233 655Q200 655 181 632T154 580T148 531L198 515Q210 558 243 558Q273 558 301 538T368 517Q418 517 434
560T451 647ZM332 0H581V97H521V304Q521 384 474 422T363 460Q263 460 218 382V451H24V353H89V97H29V0H278V97H218V259Q219 305 244 333T315 362Q353 362 372 337T392 254V97H332V0Z" />
<glyph unicode="&#xf2;" glyph-name="uni00F2" horiz-adv-x="523" d="M-10 -213V917H533V-213H-10ZM303 508L337 557L175 700L108 599L303 508ZM262 461Q140 461 80 390T20 220Q20 111 85 51T255 -10Q363 -10 433 54T503 225Q503 320 444 390T262 461ZM259 89Q206
89 180 129T153 227Q153 291 181 326T260 362Q306 362 338 330T370 229Q370 164 340 127T259 89Z" />
<glyph unicode="&#xf3;" glyph-name="uni00F3" horiz-adv-x="523" d="M-10 -213V917H533V-213H-10ZM255 508L450 599L383 700L221 557L255 508ZM262 461Q140 461 80 390T20 220Q20 111 85 51T255 -10Q363 -10 433 54T503 225Q503 320 444 390T262 461ZM259 89Q206
89 180 129T153 227Q153 291 181 326T260 362Q306 362 338 330T370 229Q370 164 340 127T259 89Z" />
<glyph unicode="&#xf4;" glyph-name="uni00F4" horiz-adv-x="523" d="M-10 -213V917H533V-213H-10ZM396 508L430 557L294 684H249L114 558L149 507L261 575L396 508ZM262 461Q140 461 80 390T20 220Q20 111 85 51T255 -10Q363 -10 433 54T503 225Q503 320 444
390T262 461ZM259 89Q206 89 180 129T153 227Q153 291 181 326T260 362Q306 362 338 330T370 229Q370 164 340 127T259 89Z" />
<glyph unicode="&#xf5;" glyph-name="uni00F5" horiz-adv-x="523" d="M-10 -213V917H533V-213H-10ZM416 647L362 658Q349 617 315 617Q290 617 261 636T198 655Q165 655 146 632T120 580T113 531L163 515Q175 558 208 558Q238 558 266 538T333 517Q382 517 399
560T416 647ZM262 461Q140 461 80 390T20 220Q20 111 85 51T255 -10Q363 -10 433 54T503 225Q503 320 444 390T262 461ZM259 89Q206 89 180 129T153 227Q153 291 181 326T260 362Q306 362 338 330T370 229Q370 164 340 127T259 89Z" />
<glyph unicode="&#xf6;" glyph-name="uni00F6" horiz-adv-x="523" d="M-10 -213V917H533V-213H-10ZM107 665V531H236V665H107ZM292 665V531H421V665H292ZM262 461Q140 461 80 390T20 220Q20 111 85 51T255 -10Q363 -10 433 54T503 225Q503 320 444 390T262 461ZM259
89Q206 89 180 129T153 227Q153 291 181 326T260 362Q306 362 338 330T370 229Q370 164 340 127T259 89Z" />
<glyph unicode="&#xf7;" glyph-name="uni00F7" horiz-adv-x="406" d="M-10 917H416V-213H-10V917ZM126 361H279V524H126V361ZM376 237V325H29V237H376ZM126 39H279V202H126V39Z" />
<glyph unicode="&#xf8;" glyph-name="uni00F8" horiz-adv-x="524" d="M-10 -213V917H533V-213H-10ZM504 225Q504 322 447 387L504 451H418L397 427Q340 460 263 460Q142 460 82 389T21 219Q21 122 75 62L20 0H105L124 22Q180 -10 256 -10Q364 -10 434 53T504 225ZM160
227Q160 352 261 352Q294 352 318 337L168 167Q160 191 160 227ZM365 229Q365 167 337 133T260 98Q228 98 205 113L357 285Q365 259 365 229Z" />
<glyph unicode="&#xf9;" glyph-name="uni00F9" horiz-adv-x="585" d="M-10 -213V917H596V-213H-10ZM294 508L328 557L166 700L99 599L294 508ZM377 0H571V97H506V451H304V354H377V196Q377 149 352 119T280 89Q242 89 223 113T203 197V451H14V354H74V147Q74 67
121 29T232 -9Q332 -9 377 69V0Z" />
<glyph unicode="&#xfa;" glyph-name="uni00FA" horiz-adv-x="585" d="M-10 -213V917H596V-213H-10ZM254 508L449 599L382 700L220 557L254 508ZM377 0H571V97H506V451H304V354H377V196Q377 149 352 119T280 89Q242 89 223 113T203 197V451H14V354H74V147Q74 67
121 29T232 -9Q332 -9 377 69V0Z" />
<glyph unicode="&#xfb;" glyph-name="uni00FB" horiz-adv-x="585" d="M-10 -213V917H596V-213H-10ZM403 508L437 557L301 684H256L121 558L156 507L268 575L403 508ZM377 0H571V97H506V451H304V354H377V196Q377 149 352 119T280 89Q242 89 223 113T203 197V451H14V354H74V147Q74
67 121 29T232 -9Q332 -9 377 69V0Z" />
<glyph unicode="&#xfc;" glyph-name="uni00FC" horiz-adv-x="585" d="M-10 -213V917H596V-213H-10ZM111 665V531H240V665H111ZM296 665V531H425V665H296ZM377 0H571V97H506V451H304V354H377V196Q377 149 352 119T280 89Q242 89 223 113T203 197V451H14V354H74V147Q74
67 121 29T232 -9Q332 -9 377 69V0Z" />
<glyph unicode="&#xfd;" glyph-name="uni00FD" horiz-adv-x="530" d="M-10 -213V917H540V-213H350V-113H291L334 0L479 354H523V451H317V354H356L288 146H282L190 354H235V451H5V354H51L209 -7L173 -113H101V-213H-10ZM241 508L436 599L369 700L207 557L241 508Z" />
<glyph unicode="&#xfe;" glyph-name="uni00FE" horiz-adv-x="545" d="M178 365V688H-10V917H555V-213H258V-115H178V57Q221 -10 316 -10Q418 -10 470 63T523 236Q523 342 470 401T330 460Q268 460 232 432T178 365ZM49 -115H-10V590H49V-115ZM384 225Q384 156
354 127T281 97Q237 97 208 126T178 211V227Q180 276 209 314T288 353Q329 353 356 322T384 225Z" />
<glyph unicode="&#xff;" glyph-name="uni00FF" horiz-adv-x="530" d="M-10 -213V917H540V-213H350V-113H291L334 0L479 354H523V451H317V354H356L288 146H282L190 354H235V451H5V354H51L209 -7L173 -113H101V-213H-10ZM127 665V531H256V665H127ZM312 665V531H441V665H312Z"
/>
<glyph unicode="&#x2013;" glyph-name="uni2013" horiz-adv-x="590" d="M-10 917H600V-213H-10V917ZM44 193H546V278H44V193Z" />
<glyph unicode="&#x2014;" glyph-name="uni2014" horiz-adv-x="1028" d="M-12 917H1038V-213H-12V917ZM44 193H984V278H44V193Z" />
<glyph unicode="&#x2018;" glyph-name="uni2018" horiz-adv-x="230" d="M-10 -213V917H240V-213H-10ZM153 405L213 639H87L27 405H153Z" />
<glyph unicode="&#x2019;" glyph-name="uni2019" horiz-adv-x="222" d="M-10 -213V917H232V-213H-10ZM83 730L23 496H149L209 730H83Z" />
<glyph unicode="&#x201a;" glyph-name="uni201A" horiz-adv-x="222" d="M-10 -213V917H232V-213H-10ZM63 149L3 -85H129L189 149H63Z" />
<glyph unicode="&#x201c;" glyph-name="uni201C" horiz-adv-x="398" d="M408 917V-213H-10V917H408ZM159 435L219 669H93L33 435H159ZM335 435L395 669H269L209 435H335Z" />
<glyph unicode="&#x201d;" glyph-name="uni201D" horiz-adv-x="398" d="M-10 -213V917H408V-213H-10ZM63 670L3 436H129L189 670H63ZM239 670L179 436H305L365 670H239Z" />
<glyph unicode="&#x201e;" glyph-name="uni201E" horiz-adv-x="400" d="M-10 -213V917H410V-213H-10ZM63 149L3 -85H129L189 149H63ZM241 149L181 -85H307L367 149H241Z" />
<glyph unicode="&#x2022;" glyph-name="uni2022" horiz-adv-x="351" d="M-10 917H361V-213H-10V917ZM50 242Q50 190 86 154T175 117Q228 117 265 153T302 242Q302 295 265 332T175 369Q122 369 86 332T50 242Z" />
<glyph unicode="&#x2039;" glyph-name="uni2039" horiz-adv-x="301" d="M-10 917H311V-213H-10V917ZM270 25L153 271L270 511H163L25 271L163 25H270Z" />
<glyph unicode="&#x203a;" glyph-name="uni203A" horiz-adv-x="301" d="M-10 917H311V-213H-10V917ZM138 25L276 271L138 511H31L148 271L31 25H138Z" />
</font>
</defs>
</svg>
